<svg xmlns="http://www.w3.org/2000/svg">
<defs>
<font
   id="EmbeddedFont_1"
   horiz-adv-x="2048"
   horiz-origin-x="0"
   horiz-origin-y="0"
   vert-origin-x="512"
   vert-origin-y="768"
   vert-adv-y="1024">
   <font-face
   font-family="Poppins embedded"
   units-per-em="2048"
   font-weight="normal"
   font-style="normal"
   ascent="2143"
   descent="714"
   id="font-face10" />
   <missing-glyph
   horiz-adv-x="2048"
   d="M 0,0 L 2047,0 2047,2047 0,2047 0,0 Z"
   id="missing-glyph12" />
   <glyph
   unicode="”"
   horiz-adv-x="689"
   d="M 186,1428 L 393,1428 197,963 66,963 186,1428 Z M 518,1428 L 725,1428 528,963 395,963 518,1428 Z"
   id="glyph14" />
   <glyph
   unicode="“"
   horiz-adv-x="689"
   d="M 258,963 L 49,963 246,1428 379,1428 258,963 Z M 590,963 L 381,963 578,1428 711,1428 590,963 Z"
   id="glyph16" />
   <glyph
   unicode="y"
   horiz-adv-x="1139"
   d="M 1124,1123 L 449,-528 256,-528 477,13 25,1123 231,1123 584,214 932,1123 1124,1123 Z"
   id="glyph18" />
   <glyph
   unicode="w"
   horiz-adv-x="1668"
   d="M 1653,1123 L 1303,0 1110,0 840,891 569,0 377,0 25,1123 215,1123 473,180 752,1123 942,1123 1214,178 1468,1123 1653,1123 Z"
   id="glyph20" />
   <glyph
   unicode="u"
   horiz-adv-x="1006"
   d="M 1153,1123 L 1153,0 967,0 967,166 C 931,109 882,64 818,32 755,0 685,-16 608,-16 521,-16 442,2 373,38 303,74 248,129 208,201 168,274 147,362 147,465 L 147,1123 332,1123 332,490 C 332,379 360,294 416,235 472,176 548,146 645,146 745,146 823,177 881,238 938,299 967,389 967,506 L 967,1123 1153,1123 Z"
   id="glyph22" />
   <glyph
   unicode="t"
   horiz-adv-x="609"
   d="M 385,969 L 385,307 C 385,253 397,214 420,192 443,169 483,158 541,158 L 678,158 678,0 510,0 C 406,0 328,24 276,72 225,120 199,198 199,307 L 199,969 53,969 53,1123 199,1123 199,1406 385,1406 385,1123 678,1123 678,969 385,969 Z"
   id="glyph24" />
   <glyph
   unicode="s"
   horiz-adv-x="874"
   d="M 555,-18 C 469,-18 392,-3 324,26 255,55 201,96 162,149 122,202 100,262 96,330 L 289,330 C 294,274 321,229 368,193 415,157 477,140 553,140 624,140 680,155 721,187 762,218 782,258 782,306 782,355 761,391 717,415 673,439 606,463 514,486 431,508 363,530 310,553 258,575 213,609 175,653 138,697 119,756 119,828 119,886 136,938 170,986 204,1034 253,1072 315,1100 378,1128 450,1142 530,1142 655,1142 755,1110 831,1047 908,985 949,899 954,789 L 768,789 C 764,848 740,895 697,931 654,966 597,984 524,984 457,984 404,970 365,941 325,912 305,875 305,828 305,791 317,761 341,737 365,713 395,694 431,680 467,665 517,649 582,632 662,610 728,588 778,567 829,546 872,514 908,472 944,429 963,374 965,306 965,244 948,189 913,140 879,91 831,52 769,24 707,-4 636,-18 555,-18 Z"
   id="glyph26" />
   <glyph
   unicode="r"
   horiz-adv-x="556"
   d="M 344,940 C 377,1004 424,1054 484,1090 545,1125 619,1143 707,1143 L 707,950 657,950 C 449,950 344,837 344,610 L 344,0 158,0 158,1123 344,1123 344,940 Z"
   id="glyph28" />
   <glyph
   unicode="p"
   horiz-adv-x="1138"
   d="M 344,915 C 381,980 436,1033 509,1076 582,1119 667,1141 764,1141 864,1141 954,1117 1035,1069 1117,1021 1180,954 1227,867 1273,781 1296,680 1296,565 1296,452 1273,351 1227,262 1180,173 1117,104 1035,55 954,6 864,-19 764,-19 668,-19 584,3 511,46 438,89 382,142 344,206 L 344,-533 158,-533 158,1122 344,1122 344,915 Z M 1106,565 C 1106,650 1089,724 1055,786 1021,849 975,897 916,930 858,963 795,979 725,979 657,979 594,962 536,929 478,895 431,847 396,783 361,720 344,646 344,563 344,478 361,404 396,341 431,277 478,229 536,195 594,162 657,145 725,145 795,145 858,162 916,195 975,229 1021,277 1055,341 1089,404 1106,479 1106,565 Z"
   id="glyph30" />
   <glyph
   unicode="o"
   horiz-adv-x="1139"
   d="M 647,-18 C 542,-18 447,6 361,54 276,102 209,170 161,258 112,346 88,448 88,564 88,679 113,780 163,868 213,956 281,1024 367,1071 453,1118 549,1142 655,1142 762,1142 858,1118 944,1071 1030,1024 1098,957 1148,869 1198,782 1223,680 1223,564 1223,448 1197,346 1146,258 1095,170 1025,102 938,54 851,6 754,-18 647,-18 Z M 647,146 C 714,146 777,162 836,193 894,224 942,272 978,334 1014,397 1032,474 1032,564 1032,654 1014,731 979,794 943,856 897,903 840,934 782,965 720,980 653,980 585,980 523,965 466,934 409,903 364,856 330,794 296,731 279,654 279,564 279,472 295,395 329,332 362,270 407,223 463,192 519,161 580,146 647,146 Z"
   id="glyph32" />
   <glyph
   unicode="n"
   horiz-adv-x="1006"
   d="M 705,1143 C 841,1143 952,1102 1036,1019 1121,936 1163,817 1163,662 L 1163,0 979,0 979,635 C 979,747 951,833 895,892 839,951 763,981 666,981 567,981 489,950 431,889 373,828 344,738 344,621 L 344,0 158,0 158,1123 344,1123 344,963 C 381,1020 431,1064 495,1096 558,1127 628,1143 705,1143 Z"
   id="glyph34" />
   <glyph
   unicode="m"
   horiz-adv-x="1773"
   d="M 1507,1143 C 1595,1143 1673,1125 1741,1089 1809,1053 1863,998 1903,926 1942,854 1962,765 1962,662 L 1962,0 1778,0 1778,635 C 1778,747 1750,833 1695,892 1639,951 1565,981 1470,981 1374,981 1296,950 1239,888 1182,826 1153,736 1153,619 L 1153,0 969,0 969,635 C 969,747 941,833 886,892 830,951 756,981 662,981 565,981 487,950 430,888 373,826 344,736 344,619 L 344,0 158,0 158,1123 344,1123 344,961 C 381,1019 430,1064 493,1096 555,1127 623,1143 698,1143 793,1143 876,1122 948,1080 1021,1037 1075,975 1110,893 1141,972 1193,1034 1266,1077 1338,1121 1419,1143 1507,1143 Z"
   id="glyph36" />
   <glyph
   unicode="l"
   horiz-adv-x="212"
   d="M 344,1516 L 344,0 158,0 158,1516 344,1516 Z"
   id="glyph38" />
   <glyph
   unicode="k"
   horiz-adv-x="900"
   d="M 784,0 L 344,496 344,0 158,0 158,1516 344,1516 344,625 776,1123 1036,1123 508,563 1038,0 784,0 Z"
   id="glyph40" />
   <glyph
   unicode="j"
   horiz-adv-x="424"
   d="M 258,1304 C 223,1304 193,1316 169,1341 145,1365 133,1396 133,1431 133,1467 145,1497 169,1521 193,1546 223,1558 258,1558 294,1558 323,1546 347,1521 371,1497 383,1467 383,1431 383,1396 371,1365 347,1341 323,1316 294,1304 258,1304 Z M 350,-244 C 350,-344 325,-417 274,-463 224,-510 150,-533 53,-533 L -55,-533 -55,-375 23,-375 C 74,-375 111,-365 132,-345 153,-324 164,-289 164,-240 L 164,1122 350,1122 350,-244 Z"
   id="glyph42" />
   <glyph
   unicode="i"
   horiz-adv-x="239"
   d="M 254,1305 C 218,1305 188,1317 164,1342 139,1366 127,1396 127,1432 127,1468 139,1498 164,1522 188,1547 218,1559 254,1559 288,1559 317,1547 341,1522 365,1498 377,1468 377,1432 377,1396 365,1366 341,1342 317,1317 288,1305 254,1305 Z M 344,1123 L 344,0 158,0 158,1123 344,1123 Z"
   id="glyph44" />
   <glyph
   unicode="h"
   horiz-adv-x="1006"
   d="M 715,1143 C 799,1143 876,1125 944,1089 1012,1053 1066,998 1105,926 1144,854 1163,765 1163,662 L 1163,0 979,0 979,635 C 979,747 951,833 895,892 839,951 763,981 666,981 567,981 489,950 431,889 373,828 344,738 344,621 L 344,0 158,0 158,1516 344,1516 344,963 C 381,1020 432,1064 497,1096 562,1127 634,1143 715,1143 Z"
   id="glyph46" />
   <glyph
   unicode="g"
   horiz-adv-x="1139"
   d="M 621,1141 C 717,1141 802,1120 876,1078 949,1035 1003,982 1038,918 L 1038,1123 1227,1123 1227,-25 C 1227,-127 1205,-218 1161,-298 1118,-378 1055,-440 974,-485 893,-530 798,-553 690,-553 543,-553 420,-518 322,-448 223,-379 165,-284 147,-164 L 332,-164 C 352,-232 395,-287 459,-329 523,-370 600,-391 690,-391 793,-391 876,-359 941,-295 1006,-231 1038,-140 1038,-24 L 1038,211 C 1001,146 947,91 875,48 802,4 717,-18 621,-18 521,-18 430,7 349,56 268,105 204,174 158,263 111,351 88,452 88,566 88,680 111,781 158,868 204,954 268,1022 349,1069 430,1117 521,1141 621,1141 Z M 1038,564 C 1038,648 1021,722 987,785 953,847 907,896 849,929 791,962 727,979 657,979 588,979 524,963 467,930 410,897 364,850 330,787 296,724 279,650 279,566 279,480 296,405 330,341 364,278 410,229 467,196 524,163 588,146 657,146 727,146 791,163 849,196 907,229 953,278 987,341 1021,405 1038,479 1038,564 Z"
   id="glyph48" />
   <glyph
   unicode="f"
   horiz-adv-x="557"
   d="M 614,969 L 379,969 379,0 193,0 193,969 47,969 47,1123 193,1123 193,1203 C 193,1328 225,1420 290,1478 355,1536 459,1565 602,1565 L 602,1409 C 520,1409 463,1393 429,1361 396,1329 379,1276 379,1203 L 379,1123 614,1123 614,969 Z"
   id="glyph50" />
   <glyph
   unicode="e"
   horiz-adv-x="1086"
   d="M 1182,605 C 1182,569 1180,532 1176,492 L 279,492 C 285,381 323,295 392,233 461,171 545,140 643,140 724,140 791,159 845,196 899,234 937,284 958,347 L 1159,347 C 1129,239 1069,151 979,83 889,16 777,-18 643,-18 537,-18 441,6 357,54 273,102 208,169 160,258 112,346 88,448 88,564 88,680 111,782 158,869 204,957 269,1024 353,1071 437,1118 534,1142 643,1142 750,1142 844,1119 926,1072 1008,1026 1071,962 1115,880 1160,799 1182,707 1182,605 Z M 989,644 C 989,715 973,776 942,827 911,878 868,917 814,944 760,971 700,984 635,984 541,984 460,954 394,894 328,834 290,750 281,644 L 989,644 Z"
   id="glyph52" />
   <glyph
   unicode="d"
   horiz-adv-x="1139"
   d="M 88,566 C 88,681 111,782 158,868 204,955 268,1022 349,1070 430,1118 522,1142 623,1142 710,1142 791,1122 866,1081 941,1041 999,988 1038,923 L 1038,1516 1227,1516 1227,0 1038,0 1038,211 C 1001,145 947,90 875,47 802,4 717,-18 621,-18 521,-18 430,7 349,56 268,105 204,174 158,263 111,352 88,453 88,566 Z M 1038,564 C 1038,649 1021,722 987,785 953,848 907,896 849,930 791,963 727,980 657,980 588,980 524,964 467,931 410,898 364,850 330,787 296,725 279,651 279,566 279,480 296,405 330,342 364,278 410,230 467,196 524,163 588,146 657,146 727,146 791,163 849,196 907,230 953,278 987,342 1021,405 1038,479 1038,564 Z"
   id="glyph54" />
   <glyph
   unicode="c"
   horiz-adv-x="1086"
   d="M 88,564 C 88,680 111,781 158,868 204,955 269,1022 351,1070 434,1118 528,1142 635,1142 773,1142 886,1108 976,1041 1065,974 1124,882 1153,763 L 952,763 C 933,831 896,885 841,925 785,964 717,984 635,984 528,984 442,947 377,874 311,801 279,698 279,564 279,429 311,324 377,250 442,177 528,140 635,140 717,140 785,159 840,197 894,235 932,290 952,361 L 1153,361 C 1123,246 1063,154 973,85 883,16 770,-18 635,-18 528,-18 434,6 351,54 269,102 204,169 158,257 111,344 88,446 88,564 Z"
   id="glyph56" />
   <glyph
   unicode="b"
   horiz-adv-x="1138"
   d="M 344,914 C 382,981 438,1036 512,1078 586,1121 670,1142 764,1142 865,1142 956,1118 1036,1070 1117,1022 1180,955 1227,868 1273,782 1296,681 1296,566 1296,453 1273,352 1227,263 1180,174 1117,105 1035,56 954,7 864,-18 764,-18 667,-18 582,3 509,46 436,88 381,142 344,207 L 344,0 158,0 158,1516 344,1516 344,914 Z M 1106,566 C 1106,651 1089,725 1055,787 1021,850 975,898 916,931 858,964 795,980 725,980 657,980 594,963 536,930 478,896 431,848 396,784 361,721 344,647 344,564 344,479 361,405 396,342 431,278 478,230 536,196 594,163 657,146 725,146 795,146 858,163 916,196 975,230 1021,278 1055,342 1089,405 1106,480 1106,566 Z"
   id="glyph58" />
   <glyph
   unicode="a"
   horiz-adv-x="1139"
   d="M 88,566 C 88,681 111,782 158,868 204,955 268,1022 349,1070 430,1118 521,1142 621,1142 719,1142 804,1121 877,1078 949,1036 1003,983 1038,919 L 1038,1123 1227,1123 1227,0 1038,0 1038,209 C 1001,144 947,90 873,47 800,4 715,-18 619,-18 519,-18 429,7 348,56 268,105 204,174 158,263 111,352 88,453 88,566 Z M 1038,564 C 1038,649 1021,722 987,785 953,848 907,896 849,930 791,963 727,980 657,980 588,980 524,964 467,931 410,898 364,850 330,787 296,725 279,651 279,566 279,480 296,405 330,342 364,278 410,230 467,196 524,163 588,146 657,146 727,146 791,163 849,196 907,230 953,278 987,342 1021,405 1038,479 1038,564 Z"
   id="glyph60" />
   <glyph
   unicode="O"
   horiz-adv-x="1430"
   d="M 805,-14 C 672,-14 552,17 442,79 333,141 247,228 183,339 120,451 88,576 88,715 88,855 120,980 183,1091 247,1203 333,1289 442,1352 552,1414 672,1445 805,1445 939,1445 1060,1414 1169,1352 1279,1289 1365,1203 1427,1092 1490,982 1522,856 1522,715 1522,575 1490,449 1427,338 1365,228 1279,141 1169,79 1060,17 939,-14 805,-14 Z M 805,148 C 905,148 994,171 1074,217 1154,264 1217,330 1263,416 1308,502 1331,602 1331,715 1331,830 1308,930 1263,1016 1217,1101 1154,1167 1075,1213 996,1260 906,1283 805,1283 704,1283 614,1260 535,1213 455,1167 393,1101 347,1016 301,930 279,830 279,715 279,602 301,502 347,416 393,330 456,264 536,217 615,171 705,148 805,148 Z"
   id="glyph62" />
   <glyph
   unicode="I"
   horiz-adv-x="212"
   d="M 344,1428 L 344,0 158,0 158,1428 344,1428 Z"
   id="glyph64" />
   <glyph
   unicode="."
   horiz-adv-x="240"
   d="M 217,-12 C 182,-12 152,0 127,25 102,49 90,80 90,115 90,151 102,181 127,205 152,230 182,242 217,242 251,242 280,230 304,205 328,181 340,151 340,115 340,80 328,49 304,25 280,0 251,-12 217,-12 Z"
   id="glyph66" />
   <glyph
   unicode=","
   horiz-adv-x="397"
   d="M 350,258 L 121,-293 -4,-293 145,258 350,258 Z"
   id="glyph68" />
   <glyph
   unicode=" "
   horiz-adv-x="556"
   id="glyph70" />
  </font>
 </defs>
 <defs
   id="defs94">
  <font
   id="EmbeddedFont_2"
   horiz-adv-x="2048"
   horiz-origin-x="0"
   horiz-origin-y="0"
   vert-origin-x="512"
   vert-origin-y="768"
   vert-adv-y="1024">
   <font-face
   font-family="PoppinsMedium embedded"
   units-per-em="2048"
   font-weight="normal"
   font-style="normal"
   ascent="2143"
   descent="714"
   id="font-face75" />
   <missing-glyph
   horiz-adv-x="2048"
   d="M 0,0 L 2047,0 2047,2047 0,2047 0,0 Z"
   id="missing-glyph77" />
   <glyph
   unicode="r"
   horiz-adv-x="583"
   d="M 387,965 C 421,1022 467,1067 523,1099 580,1131 647,1147 725,1147 L 725,905 666,905 C 574,905 505,882 458,836 411,789 387,709 387,594 L 387,0 154,0 154,1129 387,1129 387,965 Z"
   id="glyph79" />
   <glyph
   unicode="o"
   horiz-adv-x="1139"
   d="M 643,-18 C 537,-18 440,6 354,55 268,103 201,172 152,260 102,348 78,450 78,566 78,681 103,782 154,871 204,960 273,1028 360,1076 448,1124 545,1148 653,1148 761,1148 859,1124 946,1076 1034,1028 1103,960 1153,871 1204,782 1229,681 1229,566 1229,451 1203,349 1151,261 1099,172 1028,103 939,55 850,6 751,-18 643,-18 Z M 643,185 C 703,185 759,199 812,228 865,256 907,300 940,357 973,414 989,484 989,566 989,648 973,717 942,774 911,831 869,873 817,902 765,931 709,945 649,945 589,945 534,931 482,902 431,873 390,831 360,774 330,717 315,648 315,566 315,444 346,350 409,284 471,218 549,185 643,185 Z"
   id="glyph81" />
   <glyph
   unicode="n"
   horiz-adv-x="1033"
   d="M 723,1147 C 812,1147 891,1129 962,1092 1032,1055 1087,1000 1126,928 1166,855 1186,768 1186,666 L 1186,0 954,0 954,631 C 954,732 929,809 879,863 828,917 759,944 672,944 584,944 515,917 464,863 413,809 387,732 387,631 L 387,0 154,0 154,1129 387,1129 387,1000 C 425,1046 474,1082 534,1108 593,1134 656,1147 723,1147 Z"
   id="glyph83" />
   <glyph
   unicode="m"
   horiz-adv-x="1826"
   d="M 1520,1147 C 1608,1147 1688,1129 1758,1092 1829,1055 1884,1000 1924,928 1964,855 1985,768 1985,666 L 1985,0 1753,0 1753,631 C 1753,732 1728,809 1677,863 1627,917 1558,944 1470,944 1383,944 1314,917 1263,863 1211,809 1186,732 1186,631 L 1186,0 954,0 954,631 C 954,732 929,809 879,863 828,917 759,944 672,944 584,944 515,917 464,863 413,809 387,732 387,631 L 387,0 154,0 154,1129 387,1129 387,1000 C 425,1046 474,1082 532,1108 591,1134 654,1147 721,1147 811,1147 892,1128 963,1090 1034,1051 1088,996 1126,924 1161,992 1214,1046 1286,1087 1359,1127 1436,1147 1520,1147 Z"
   id="glyph85" />
   <glyph
   unicode="g"
   horiz-adv-x="1166"
   d="M 608,1147 C 696,1147 773,1130 841,1095 908,1060 961,1017 999,965 L 999,1129 1235,1129 1235,-18 C 1235,-122 1213,-215 1169,-296 1126,-377 1063,-441 980,-487 897,-534 799,-557 684,-557 531,-557 404,-521 303,-449 202,-378 145,-280 131,-157 L 363,-157 C 380,-216 418,-264 476,-300 534,-336 603,-354 684,-354 778,-354 854,-326 912,-268 970,-211 999,-127 999,-18 L 999,170 C 960,117 906,72 839,36 771,0 694,-18 608,-18 510,-18 420,7 339,57 258,107 194,176 146,266 99,355 76,456 76,570 76,683 99,783 146,871 194,958 258,1026 339,1074 420,1123 510,1147 608,1147 Z M 999,566 C 999,643 983,711 951,768 919,826 877,869 825,899 773,929 717,944 657,944 597,944 541,930 489,900 438,871 396,828 364,771 331,715 315,647 315,570 315,492 331,424 364,365 396,306 438,262 490,231 543,200 599,185 657,185 717,185 773,200 825,230 877,260 919,304 951,362 983,420 999,488 999,566 Z"
   id="glyph87" />
   <glyph
   unicode="a"
   horiz-adv-x="1166"
   d="M 76,570 C 76,683 99,784 146,871 194,959 258,1027 339,1075 420,1124 510,1148 608,1148 697,1148 774,1130 841,1096 907,1061 960,1017 999,965 L 999,1129 1235,1129 1235,0 999,0 999,168 C 960,115 906,71 838,35 769,0 692,-18 604,-18 507,-18 418,7 338,57 257,107 194,176 146,266 99,355 76,457 76,570 Z M 999,566 C 999,644 983,711 951,769 919,826 877,870 825,900 773,930 717,945 657,945 597,945 541,930 489,901 438,872 396,829 364,772 331,715 315,648 315,570 315,492 331,424 364,365 396,306 438,262 490,231 543,200 599,185 657,185 717,185 773,200 825,230 877,260 919,304 951,362 983,420 999,488 999,566 Z"
   id="glyph89" />
   <glyph
   unicode="M"
   horiz-adv-x="1482"
   d="M 1653,1424 L 1653,0 1419,0 1419,975 985,0 823,0 387,975 387,0 154,0 154,1424 406,1424 905,307 1403,1424 1653,1424 Z"
   id="glyph91" />
  </font>
 </defs>
 <defs
   id="defs153">
  <font
   id="EmbeddedFont_3"
   horiz-adv-x="2048"
   horiz-origin-x="0"
   horiz-origin-y="0"
   vert-origin-x="512"
   vert-origin-y="768"
   vert-adv-y="1024">
   <font-face
   font-family="Poppinsular embedded"
   units-per-em="2048"
   font-weight="normal"
   font-style="normal"
   ascent="1879"
   descent="476"
   id="font-face96" />
   <missing-glyph
   horiz-adv-x="2048"
   d="M 0,0 L 2047,0 2047,2047 0,2047 0,0 Z"
   id="missing-glyph98" />
   <glyph
   unicode="’"
   horiz-adv-x="318"
   d="M 260,1493 L 471,1493 471,1341 307,1022 178,1022 260,1341 260,1493 Z"
   id="glyph100" />
   <glyph
   unicode="‘"
   horiz-adv-x="318"
   d="M 385,1001 L 174,1001 174,1174 338,1493 467,1493 385,1174 385,1001 Z"
   id="glyph102" />
   <glyph
   unicode="y"
   horiz-adv-x="1112"
   d="M 659,-104 C 607,-237 556,-324 507,-365 458,-406 392,-426 309,-426 L 162,-426 162,-272 270,-272 C 321,-272 360,-260 388,-236 416,-212 447,-155 481,-66 L 514,18 61,1120 256,1120 606,244 956,1120 1151,1120 659,-104 Z"
   id="glyph104" />
   <glyph
   unicode="u"
   horiz-adv-x="953"
   d="M 174,442 L 174,1120 358,1120 358,449 C 358,343 379,264 420,211 461,158 523,131 606,131 705,131 784,163 842,226 899,289 928,376 928,485 L 928,1120 1112,1120 1112,0 928,0 928,172 C 883,104 832,54 773,21 714,-12 645,-29 567,-29 438,-29 341,11 274,91 207,171 174,288 174,442 Z "
   id="glyph106" />
   <glyph
   unicode="t"
   horiz-adv-x="715"
   d="M 375,1438 L 375,1120 754,1120 754,977 375,977 375,369 C 375,278 388,219 413,193 438,167 488,154 565,154 L 754,154 754,0 565,0 C 423,0 325,27 271,80 217,133 190,229 190,369 L 190,977 55,977 55,1120 190,1120 190,1438 375,1438 Z"
   id="glyph108" />
   <glyph
   unicode="s"
   horiz-adv-x="874"
   d="M 907,1087 L 907,913 C 855,940 801,960 745,973 689,986 631,993 571,993 480,993 411,979 366,951 320,923 297,881 297,825 297,782 313,749 346,725 379,700 444,677 543,655 L 606,641 C 737,613 830,574 885,523 940,472 967,400 967,309 967,205 926,123 844,62 761,1 648,-29 504,-29 444,-29 382,-23 317,-12 252,0 183,18 111,41 L 111,231 C 179,196 246,169 312,152 378,134 443,125 508,125 595,125 661,140 708,170 755,199 778,241 778,295 778,345 761,383 728,410 694,437 620,462 506,487 L 442,502 C 328,526 246,563 195,613 144,662 119,730 119,817 119,922 156,1004 231,1061 306,1118 412,1147 549,1147 617,1147 681,1142 741,1132 801,1122 856,1107 907,1087 Z"
   id="glyph110" />
   <glyph
   unicode="r"
   horiz-adv-x="663"
   d="M 842,948 C 821,960 799,969 775,975 750,980 723,983 694,983 590,983 510,949 455,882 399,814 371,717 371,590 L 371,0 186,0 186,1120 371,1120 371,946 C 410,1014 460,1065 522,1098 584,1131 659,1147 748,1147 761,1147 775,1146 790,1145 805,1143 822,1140 841,1137 L 842,948 Z"
   id="glyph112" />
   <glyph
   unicode="o"
   horiz-adv-x="1033"
   d="M 627,991 C 528,991 450,953 393,876 336,799 307,693 307,559 307,425 336,320 393,243 450,166 528,127 627,127 725,127 803,166 860,243 917,320 946,426 946,559 946,692 917,797 860,875 803,952 725,991 627,991 Z M 627,1147 C 787,1147 913,1095 1004,991 1095,887 1141,743 1141,559 1141,376 1095,232 1004,128 913,23 787,-29 627,-29 466,-29 341,23 250,128 159,232 113,376 113,559 113,743 159,887 250,991 341,1095 466,1147 627,1147 Z"
   id="glyph114" />
   <glyph
   unicode="n"
   horiz-adv-x="954"
   d="M 1124,676 L 1124,0 940,0 940,670 C 940,776 919,855 878,908 837,961 775,987 692,987 593,987 514,955 457,892 400,829 371,742 371,633 L 371,0 186,0 186,1120 371,1120 371,946 C 415,1013 467,1064 527,1097 586,1130 655,1147 733,1147 862,1147 959,1107 1025,1028 1091,948 1124,831 1124,676 Z"
   id="glyph116" />
   <glyph
   unicode="m"
   horiz-adv-x="1642"
   d="M 1065,905 C 1111,988 1166,1049 1230,1088 1294,1127 1369,1147 1456,1147 1573,1147 1663,1106 1726,1025 1789,943 1821,827 1821,676 L 1821,0 1636,0 1636,670 C 1636,777 1617,857 1579,909 1541,961 1483,987 1405,987 1310,987 1234,955 1179,892 1124,829 1096,742 1096,633 L 1096,0 911,0 911,670 C 911,778 892,858 854,910 816,961 757,987 678,987 584,987 509,955 454,892 399,828 371,742 371,633 L 371,0 186,0 186,1120 371,1120 371,946 C 413,1015 463,1065 522,1098 581,1131 650,1147 731,1147 812,1147 882,1126 939,1085 996,1044 1038,984 1065,905 Z"
   id="glyph118" />
   <glyph
   unicode="l"
   horiz-adv-x="213"
   d="M 193,1556 L 377,1556 377,0 193,0 193,1556 Z"
   id="glyph120" />
   <glyph
   unicode="j"
   horiz-adv-x="451"
   d="M 193,1120 L 377,1120 377,-20 C 377,-163 350,-266 296,-330 241,-394 154,-426 33,-426 L -37,-426 -37,-270 12,-270 C 82,-270 130,-254 155,-222 180,-189 193,-122 193,-20 L 193,1120 Z M 193,1556 L 377,1556 377,1323 193,1323 193,1556 Z"
   id="glyph122" />
   <glyph
   unicode="i"
   horiz-adv-x="213"
   d="M 193,1120 L 377,1120 377,0 193,0 193,1120 Z M 193,1556 L 377,1556 377,1323 193,1323 193,1556 Z"
   id="glyph124" />
   <glyph
   unicode="g"
   horiz-adv-x="1006"
   d="M 930,573 C 930,706 903,810 848,883 793,956 715,993 616,993 517,993 441,956 386,883 331,810 303,706 303,573 303,440 331,337 386,264 441,191 517,154 616,154 715,154 793,191 848,264 903,337 930,440 930,573 Z M 1114,139 C 1114,-52 1072,-193 987,-287 902,-379 773,-426 598,-426 533,-426 472,-421 415,-412 358,-402 302,-387 248,-367 L 248,-188 C 302,-217 355,-239 408,-253 461,-267 514,-274 569,-274 690,-274 780,-242 840,-180 900,-116 930,-21 930,106 L 930,197 C 892,131 843,82 784,49 725,16 654,0 571,0 434,0 323,52 239,157 155,262 113,400 113,573 113,746 155,885 239,990 323,1095 434,1147 571,1147 654,1147 725,1131 784,1098 843,1065 892,1016 930,950 L 930,1120 1114,1120 1114,139 Z"
   id="glyph126" />
   <glyph
   unicode="e"
   horiz-adv-x="1059"
   d="M 1151,606 L 1151,516 305,516 C 313,389 351,293 420,227 488,160 583,127 705,127 776,127 844,136 911,153 977,170 1043,196 1108,231 L 1108,57 C 1042,29 974,8 905,-7 836,-22 765,-29 694,-29 515,-29 374,23 270,127 165,231 113,372 113,549 113,732 163,878 262,986 361,1093 494,1147 662,1147 813,1147 932,1099 1020,1002 1107,905 1151,773 1151,606 Z M 967,659 C 966,760 938,841 883,901 828,961 755,991 664,991 561,991 479,962 418,904 356,846 320,764 311,659 L 967,659 Z"
   id="glyph128" />
   <glyph
   unicode="d"
   horiz-adv-x="1006"
   d="M 930,950 L 930,1556 1114,1556 1114,0 930,0 930,168 C 891,101 843,52 784,20 725,-13 654,-29 571,-29 436,-29 326,25 241,133 156,241 113,383 113,559 113,735 156,877 241,985 326,1093 436,1147 571,1147 654,1147 725,1131 784,1099 843,1066 891,1017 930,950 Z M 303,559 C 303,424 331,318 387,241 442,164 519,125 616,125 713,125 790,164 846,241 902,318 930,424 930,559 930,694 902,801 846,878 790,955 713,993 616,993 519,993 442,955 387,878 331,801 303,694 303,559 Z"
   id="glyph130" />
   <glyph
   unicode="c"
   horiz-adv-x="900"
   d="M 999,1077 L 999,905 C 947,934 895,955 843,970 790,984 737,991 684,991 565,991 472,953 406,878 340,802 307,696 307,559 307,422 340,316 406,241 472,165 565,127 684,127 737,127 790,134 843,149 895,163 947,184 999,213 L 999,43 C 948,19 895,1 840,-11 785,-23 726,-29 664,-29 495,-29 361,24 262,130 163,236 113,379 113,559 113,742 163,885 264,990 364,1095 501,1147 676,1147 733,1147 788,1141 842,1130 896,1118 948,1100 999,1077 Z"
   id="glyph132" />
   <glyph
   unicode="b"
   horiz-adv-x="1007"
   d="M 997,559 C 997,694 969,801 914,878 858,955 781,993 684,993 587,993 510,955 455,878 399,801 371,694 371,559 371,424 399,318 455,241 510,164 587,125 684,125 781,125 858,164 914,241 969,318 997,424 997,559 Z M 371,950 C 410,1017 459,1066 518,1099 577,1131 647,1147 729,1147 865,1147 976,1093 1061,985 1146,877 1188,735 1188,559 1188,383 1146,241 1061,133 976,25 865,-29 729,-29 647,-29 577,-13 518,20 459,52 410,101 371,168 L 371,0 186,0 186,1556 371,1556 371,950 Z"
   id="glyph134" />
   <glyph
   unicode="a"
   horiz-adv-x="980"
   d="M 702,563 C 553,563 450,546 393,512 336,478 307,420 307,338 307,273 329,221 372,183 415,144 473,125 547,125 649,125 731,161 793,234 854,306 885,402 885,522 L 885,563 702,563 Z M 1069,639 L 1069,0 885,0 885,170 C 843,102 791,52 728,20 665,-13 589,-29 498,-29 383,-29 292,3 225,68 157,132 123,218 123,326 123,452 165,547 250,611 334,675 460,707 627,707 L 885,707 885,725 C 885,810 857,875 802,922 746,968 668,991 567,991 503,991 441,983 380,968 319,953 261,930 205,899 L 205,1069 C 272,1095 338,1115 401,1128 464,1141 526,1147 586,1147 748,1147 869,1105 949,1021 1029,937 1069,810 1069,639 Z"
   id="glyph136" />
   <glyph
   unicode="_"
   horiz-adv-x="1085"
   d="M 1044,-340 L 1044,-483 -20,-483 -20,-340 1044,-340 Z"
   id="glyph138" />
   <glyph
   unicode="O"
   horiz-adv-x="1403"
   d="M 807,1356 C 660,1356 544,1301 458,1192 371,1083 328,934 328,745 328,557 371,408 458,299 544,190 660,135 807,135 954,135 1070,190 1156,299 1241,408 1284,557 1284,745 1284,934 1241,1083 1156,1192 1070,1301 954,1356 807,1356 Z M 807,1520 C 1016,1520 1184,1450 1309,1310 1434,1169 1497,981 1497,745 1497,510 1434,322 1309,182 1184,41 1016,-29 807,-29 597,-29 429,41 304,181 178,321 115,509 115,745 115,981 178,1169 304,1310 429,1450 597,1520 807,1520 Z"
   id="glyph140" />
   <glyph
   unicode="1"
   horiz-adv-x="900"
   d="M 254,170 L 584,170 584,1309 225,1237 225,1421 582,1493 784,1493 784,170 1114,170 1114,0 254,0 254,170 Z"
   id="glyph142" />
   <glyph
   unicode="0"
   horiz-adv-x="1033"
   d="M 651,1360 C 547,1360 469,1309 417,1207 364,1104 338,950 338,745 338,540 364,387 417,285 469,182 547,131 651,131 756,131 834,182 887,285 939,387 965,540 965,745 965,950 939,1104 887,1207 834,1309 756,1360 651,1360 Z M 651,1520 C 818,1520 946,1454 1035,1322 1123,1189 1167,997 1167,745 1167,494 1123,302 1035,170 946,37 818,-29 651,-29 484,-29 356,37 268,170 179,302 135,494 135,745 135,997 179,1189 268,1322 356,1454 484,1520 651,1520 Z"
   id="glyph144" />
   <glyph
   unicode="."
   horiz-adv-x="239"
   d="M 219,254 L 430,254 430,0 219,0 219,254 Z"
   id="glyph146" />
   <glyph
   unicode=")"
   horiz-adv-x="477"
   d="M 164,1554 L 324,1554 C 424,1397 499,1243 549,1092 598,941 623,792 623,643 623,494 598,343 549,192 499,41 424,-113 324,-270 L 164,-270 C 253,-117 319,35 363,186 406,337 428,489 428,643 428,797 406,949 363,1099 319,1249 253,1401 164,1554 Z"
   id="glyph148" />
   <glyph
   unicode="("
   horiz-adv-x="477"
   d="M 635,1554 C 546,1401 479,1249 436,1099 393,949 371,797 371,643 371,489 393,337 437,186 480,35 546,-117 635,-270 L 475,-270 C 375,-113 300,41 251,192 201,343 176,494 176,643 176,792 201,941 250,1092 299,1243 374,1397 475,1554 L 635,1554 Z"
   id="glyph150" />
  </font>
</defs>
</svg>
